Çılgın Dersane Üniversitede | Dragon Ball – Bảy Viên Ngọc Rồng chap 470 | Ein gutes Jahr
 


 

Filecrypt zeigt vereinzelt Files als "n/a". Die Downloads sind trotzdem komplett.

DNS SERVER AENDERNum der staatlichen Zensur zu umgehen. Sollten wir von eurem Provider geseprrt werden, nutzt den TOR BROWSER oder ändert euren DNS SERVER.

Filmwünsche können bei uns im Forum abgegeben werden

Wir Speichern Nicht




 
 
 
Top Releases
Blue.My.Mind.2018.German.720...
Blue.My.Mind.2018.German.108...
The.Equalizer.2.2018.German....
The.Equalizer.2.German.DL.AC...
The.Equalizer.2.German.DL.AC...
Ant-Man.And.The.Wasp.2018.MU...
Oceans.8.2018.German.AC3.DL....
Constantine.City.of.Demons.2...
Meg.2018.German.Dubbed.RETAi...
Meg.2018.German.Dubbed.RETAi...

Cinedubs
Juliet.Naked.2018.GERMAN.DL....
Juliet.Naked.2018.GERMAN.DL....
10x10.2018.German.AC3D.DL.10...
Predator.Upgrade.German.DL.A...
Predator.Upgrade.German.DL.A...
10×10.2018.German.AC3D.DL.1...
10×10.2018.German.AC3D.DL.7...
Sicario.2.German.DL.AC3.Dubb...
Sicario.2.German.DL.AC3.Dubb...
Mission.Impossible.Fallout.2...

Neuerscheinungen 2017-18
Cut.Shoot.Kill.2017.COMPLETE...
Docteur.Knock.Ein.Arzt.mit.g...
Terminal.Rache.war.nie.schoe...
Mein.Name.ist.Somebody.2018....
Kingsman.The.Secret.Service....
8.Millionen.Wege.zu.sterben....
Ein.gewisser.Herr.Gran.1933....
Vampire.gegen.Herakles.The.V...
Steig.Nicht.Aus.2018.German....
Der.Falke.und.der.Schneemann...

XXX
Desperate.Black.Wives.I.Love...
Deep.Teen.Throat.18.XXX.720p...
Desperate.Black.Wives.I.Love...
Deep.Teen.Throat.18.XXX.1080...
WhiteGhetto.18.10.30.Gabby.Q...
GrandpasFuckTeens.18.10.30.K...
GirlsOutWest.18.10.29.Ray.XX...
WildOnCam.18.10.29.Bethany.B...
GirlsOutWest.18.10.28.Freya....
IKnowThatGirl.18.10.28.Ariet...
GirlsDoPorn.E483.18.Years.Ol...
GirlsDoPorn.E484.20.Years.Ol...
GirlFap.E36.Danica.James.Dor...
GirlsDoPorn.E487.19.Years.Ol...
WetAndPuffy.18.10.31.Nana.Ga...
BustyArianna.18.10.09.For.An...
ATKGirlfriends.18.10.30.Elen...
GirlFap.E35.Hanna.Lay.Vibrat...
GirlsDoPorn.E486.19.Years.Ol...
HardX.18.10.30.Elena.Koshka....

3D
Skyscraper.3D.2018.MULTi.COM...
Ant-Man.And.The.Wasp.3D.2018...
Ant.Man.and.the.Wasp.3D.2018...
Die.Unglaublichen.2.3D.2018....
Die.Unglaublichen.2.2018.3D....
Die.Unglaublichen.2.2018.3D....
Sharknado.6.The.Last.One.3D....
Deep.Kleine.Helden.der.Tiefs...
Deep.3D.2017.MULTI.COMPLETE....
Detective.Dee.und.die.Legend...
Detective.Dee.und.die.Legend...
Skyscraper.3D.German.DL.AC3....
Ant-Man.and.the.Wasp.2018.3D...
Jurassic.World.Das.gefallene...
Jurassic.World.Das.gefallene...

Old_Stuff
Detective.Dee.und.das.Geheim...
Detective.Dee.Und.Der.Fluch....
Ghost.Rider.Spirit.of.Vengea...
Species.IV.Das.Erwachen.2007...
Species.IV.Das.Erwachen.2007...
Hotel.Transsilvanien.2012.Ge...
The.Dead.2010.German.DL.1080...
The.Dead.2.India.2013.German...
Britney.Spears.Live.The.Femm...
Buffy.The.Vampire.Slayer.199...
IMAX.Ride.Around.The.World.2...
Schimanski.-.Duisburg.Ruhror...
Akte.X.S02.German.DTS.DL.108...
How.I.Met.Your.Mother.S02.Ge...
Akte.X.S01.German.DTS.DL.108...

Filme
Wrecked.S03.GERMAN.DUBBED.72...
Legends.of.Tomorrow.S03.COMP...
Legends.of.Tomorrow.S03.COMP...
The.Walking.Dead.S08.COMPLET...
Cliffhanger.Nur.die.Starken....
Feed.the.Fish.German.DL.2009...
Cliffhanger.Nur.die.Starken....
Stirb.langsam.Jetzt.erst.rec...
The.Last.Ship.S05.COMPLETE.G...
Meuterei.auf.der.Teufelsinse...
Stirb.Langsam.2.1990.German....
Evil.Dead.EXTENDED.BOOTLEG.2...
Evil.Dead.UNCUT.German.DL.10...
The.Fog.Nebel.des.Grauens.Re...
Chico.und.Rita.2010.German.A...
American.Beauty.1999.Open.Ma...
Stoppt.die.Todesfahrt.der.U....
Stoppt.die.Todesfahrt.der.U....
The.Hills.Have.Eyes.1.UNRATE...
Zorro.1975.German.720p.BluRa...
Zorro.1975.German.DL.1080p.B...
8.Millionen.Wege.zu.sterben....
You.Can.Count.on.Me.2000.Ger...
The.Walking.Dead.S09.GERMAN....

 
 
Fear.the.Walking.Dead.S01.COMPLETE.German.DL.720p.BluRay.x264-iNTENTiON

Jahr: 2015
Genre: Drama | Horror
Sprache: Deutsch DTS | Englisch AC3
Laufzeit: 1h je Folge
Bitrate: 2800 Kbps
Format: MKV
Größe: 2 GB je Folge
Release:

Beschreibung:

Fear the Walking Dead ist ein Spin-off des Zombiehits „The Walking Dead“. Die zweite Serie aus Robert Kirkmans Zombieuniversum spielt zeitlich vor der Mutterserie, aber soll mit der Zeit auch zu Rick ud Co. aufschließen. Der Handlungsort ist Los Angeles und im Zentrum steht eine Familie, deren Oberhaupt Cliff Curtis im Schulwesen tätig ist.

Im Mittelpunkt stehen ein geschiedener Lehrer (Cliff Curtis) und eine Vertrauenslehrerin (Kim Dickens), die zusammenarbeiten und sich in einer Beziehung befinden. Die Vertrauenslehrerin bringt zwei Kinder aus einer früheren Ehe in die Beziehung mit. Ihre Figur mag wie das Mädchen von nebenan aussehen, verbirgt aber auch eine dunkle Seite und hat eine schwierige Vergangenheit, die ihr bald wieder zu schaffen macht.



General
Complete name                            : Fear.the.Walking.Dead.S01E01.German.DL.720p.BluRay.x264-iNTENTiON\Fear.the.Walking.Dead.S01E01.German.DL.720p.BluRay.x264-iNTENTiON.mkv
Format                                   : Matroska
Format version                           : Version 2
File size                                : 2.29 GiB
Duration                                 : 1h 4mn
Overall bit rate                         : 5 076 Kbps
Writing application                      : mkvmerge v6.6.0 ('The Edge Of The In Between') built on Dec 1 2013 17:55:00
Writing library                          : libebml v1.3.0 + libmatroska v1.4.1

Video
ID                                       : 1
Format                                   : AVC
Format/Info                              : Advanced Video Codec
Format profile                           : High@L4.1
Format settings, CABAC                   : Yes
Format settings, ReFrames                : 5 frames
Codec ID                                 : V_MPEG4/ISO/AVC
Duration                                 : 1h 4mn
Bit rate                                 : 2 826 Kbps
Width                                    : 1 280 pixels
Height                                   : 720 pixels
Display aspect ratio                     : 16:9
Frame rate mode                          : Constant
Frame rate                               : 23.976 fps
Color space                              : YUV
Chroma subsampling                       : 4:2:0
Bit depth                                : 8 bits
Scan type                                : Progressive
Bits/(Pixel*Frame)                       : 0.128
Stream size                              : 1.27 GiB (56%)
Writing library                          : x264 core 148 r2638 7599210
Encoding settings                        : cabac=1 / ref=5 / deblock=1:-3:-3 / analyse=0x3:0x133 / me=umh / subme=7 / psy=1 / psy_rd=1.00:0.15 / mixed_ref=1 / me_range=16 / chroma_me=1 / trellis=1 / 8x8dct=1 / cqm=0 / deadzone=21,11 / fast_pskip=0 / chroma_qp_offset=-3 / threads=12 / lookahead_threads=2 / sliced_threads=0 / nr=0 / decimate=1 / interlaced=0 / bluray_compat=0 / constrained_intra=0 / bframes=3 / b_pyramid=2 / b_adapt=1 / b_bias=0 / direct=3 / weightb=1 / open_gop=0 / weightp=2 / keyint=240 / keyint_min=23 / scenecut=40 / intra_refresh=0 / rc_lookahead=40 / rc=crf / mbtree=1 / crf=20.0 / qcomp=0.60 / qpmin=0 / qpmax=69 / qpstep=4 / ip_ratio=1.40 / aq=1:1.00
Language                                 : English
Default                                  : Yes
Forced                                   : No

Audio #1
ID                                       : 2
Format                                   : DTS
Format/Info                              : Digital Theater Systems
Mode                                     : 16
Format settings, Endianness              : Big
Codec ID                                 : A_DTS
Duration                                 : 1h 4mn
Bit rate mode                            : Constant
Bit rate                                 : 1 509 Kbps
Channel(s)                               : 6 channels
Channel positions                        : Front: L C R, Side: L R, LFE
Sampling rate                            : 48.0 KHz
Bit depth                                : 24 bits
Compression mode                         : Lossy
Stream size                              : 697 MiB (30%)
Title                                    : DTS
Language                                 : German
Default                                  : Yes
Forced                                   : No

Audio #2
ID                                       : 3
Format                                   : AC-3
Format/Info                              : Audio Coding 3
Mode extension                           : CM (complete main)
Format settings, Endianness              : Big
Codec ID                                 : A_AC3
Duration                                 : 1h 4mn
Bit rate mode                            : Constant
Bit rate                                 : 640 Kbps
Channel(s)                               : 6 channels
Channel positions                        : Front: L C R, Side: L R, LFE
Sampling rate                            : 48.0 KHz
Bit depth                                : 16 bits
Compression mode                         : Lossy
Stream size                              : 296 MiB (13%)
Title                                    : AC3
Language                                 : English
Default                                  : Yes
Forced                                   : No

Menu
00:00:00.000                             : en:00:00:00.000
00:10:58.950                             : en:00:10:58.950
00:17:48.943                             : en:00:17:48.943
00:31:42.067                             : en:00:31:42.067
00:39:34.205                             : en:00:39:34.205
00:51:17.241                             : en:00:51:17.241



Download:
Share-Online.biz Share-Online.bizShare-Online.bizShare-Online.biz
 

Kommentare