Filecrypt zeigt vereinzelt Files als "n/a". Die Downloads sind trotzdem komplett.

DNS SERVER AENDERNum der staatlichen Zensur zu umgehen. Sollten wir von eurem Provider geseprrt werden, nutzt den TOR BROWSER oder ändert euren DNS SERVER.

Filmwünsche können bei uns im Forum abgegeben werden

Wir Speichern Nicht




 
 
 
Top Releases
Le.Jeu.Nichts.zu.verbergen.2...
Le.Jeu.Nichts.zu.verbergen.2...
Cam.2018.German.DL.1080p.WEB...
Cam.2018.German.DL.720p.WEB....
Teen.Titans.Go.To.the.Movies...
The.Ballad.of.Buster.Scruggs...
Teen.Titans.Go.To.the.Movies...
The.Ballad.of.Buster.Scruggs...
Logan.The.Wolverine.2017.NOI...
Mandy.2018.German.DL.1080p.B...

Cinedubs
Christopher.Robin.German.DL....
Christopher.Robin.German.DL....
A.Star.Is.Born.German.DL.AC3...
A.Star.Is.Born.German.DL.AC3...
Mission.Impossible.Fallout.G...
Mission.Impossible.Fallout.G...
Sicario.2.2018.German.DL.AC3...
Juliet.Naked.2018.GERMAN.DL....
Juliet.Naked.2018.GERMAN.DL....
10x10.2018.German.AC3D.DL.10...

Neuerscheinungen 2017-18
Immortal.Wars.Nur.der.Staerk...
Beautiful.People.2014.German...
Mission.Yeti.2017.German.DL....
Mission.Yeti.2017.German.720...
Boarding.School.2018.German....
Boarding.School.2018.German....
10x10.2018.GERMAN.DL.1080p.B...
10x10.2018.GERMAN.720p.BluRa...
The.Marine.6.Close.Quarters....
The.Marine.6.Close.Quarters....

XXX
NetVideoGirls.18.10.23.Janey...
NHLPCentral.18.06.21.Brook.L...
LustyGrandmas.18.03.22.Marsh...
POVPornstars.18.10.30.Lila.M...
POVLife.18.10.29.Skylar.Vale...
NetGirl.18.10.17.Gemma.And.A...
NewSensations.18.10.29.Angel...
Nubiles.18.10.29.Cleo.Mijare...
OldYoungLesbianLove.18.10.29...
NHLPCentral.18.06.14.Honour....
NubileFilms.18.10.29.Riley.S...
LustyGrandmas.18.04.02.Sila....
PlayboyPlus.18.10.29.Jenessa...
Old-n-Young.18.10.27.Blue.Sk...
NewSensations.18.10.31.Emily...
OnlyBlowJob.18.10.04.Rose.XX...
PlayboyPlus.18.10.28.Playmat...
LustyGrandmas.18.04.08.Viol....
PixAndVideo.18.10.29.Marica....
Passion-HD.18.10.31.Megan.Wi...

3D
Die.Unglaublichen.2.2018.3D....
Skyscraper.3D.2018.MULTi.COM...
Ant-Man.And.The.Wasp.3D.2018...
Ant.Man.and.the.Wasp.3D.2018...
Die.Unglaublichen.2.3D.2018....
Die.Unglaublichen.2.2018.3D....
Die.Unglaublichen.2.2018.3D....
Sharknado.6.The.Last.One.3D....
Deep.Kleine.Helden.der.Tiefs...
Deep.3D.2017.MULTI.COMPLETE....
Detective.Dee.und.die.Legend...
Detective.Dee.und.die.Legend...
Skyscraper.3D.German.DL.AC3....
Ant-Man.and.the.Wasp.2018.3D...
Jurassic.World.Das.gefallene...

Old_Stuff
Detective.Dee.und.das.Geheim...
Detective.Dee.Und.Der.Fluch....
Ghost.Rider.Spirit.of.Vengea...
Species.IV.Das.Erwachen.2007...
Species.IV.Das.Erwachen.2007...
Hotel.Transsilvanien.2012.Ge...
The.Dead.2010.German.DL.1080...
The.Dead.2.India.2013.German...
Britney.Spears.Live.The.Femm...
Buffy.The.Vampire.Slayer.199...
IMAX.Ride.Around.The.World.2...
Schimanski.-.Duisburg.Ruhror...
Akte.X.S02.German.DTS.DL.108...
How.I.Met.Your.Mother.S02.Ge...
Akte.X.S01.German.DTS.DL.108...

Filme
Scorpion.King.Das.Buch.der.S...
Das.Geheimniss.von.Marrowbon...
Es.2017.German.DL.1080p.BluR...
Todesritt.nach.Jericho.2006....
Teen.Titans.Go.To.the.Movies...
Todesschuesse.am.Broadway.19...
Todeszug.nach.Yuma.2007.Germ...
Toedliche.Bekenntnisse.2001....
Hereditary.Das.Vermaechtnis....
Jigsaw.2017.German.DL.1080p....
The.Strangers.Opfernacht.UNR...
Toedlicher.Anruf.2008.German...
Toedlicher.Charme.1990.Germa...
Toedlicher.Irrtum.1970.Germa...
Tanz.der.Teufel.2.1987.Remas...
To.Save.a.Life.2009.German.D...
Clockers.1995.German.DL.1080...
Toedliche.Fragen.1990.German...
Toedliche.Umarmung.1979.Germ...
MotoGP.Moto2.Moto3.Saison.20...
Meerjungfrauen.kuessen.besse...
Meerjungfrauen.kuessen.besse...
Mondsuechtig.1987.German.DL....
Mondsuechtig.1987.German.720...

 
 
Prom.Night.1980.German.AC3.DL.1080p.BluRay.x265-FuN

Jahr: 1980
Genre: Horror, Thriller
Sprache: Deutsch AC3 | Englisch AC3
Laufzeit: 1h 33mn
Bitrate: 5 202 Kbps
Format: MKV
Größe: 3.38 GiB
Release:

Beschreibung:
Sechs lange Jahre tragen die Hamilton High School-Schüler Kelly (Mary Beth Rubens), Jude (Joy Thompson), Wendy (Anne-Marie Martin) und Nick (Casey Stevens) nun schon ein grausames Geheimnis mit sich herum. Denn nur die Freunde wissen, was vor all den Jahren wirklich mit der 10 Jahre alten Robin Hammond (Tammy Bourne) passiert ist, deren leblosen Körper man damals gefunden hatte. Die Kinder neckten das kleine Mädchen und stichelten gegen sie. Daraufhin bekam sie Angst und wollte sich auf einen Fenstervorsprung retten, von dem sie jedoch letztendlich gefallen ist. Daraufhin beschlossen die damals 12-jährigen Kinder nie wieder über den Vorfall zu sprechen und ihr Geheimnis mit ins Grab zu nehmen. Doch was sie nicht wissen, an dem Tage beobachtete sie noch eine weitere Person und diese rächt sich nun an den Jugendlichen. Ausgerechnet an ihrem Abschlussball müssen die Schüler um ihr Leben fürchten, denn ein Mörder ist unter den Gästen…



Format                                   : Matroska
Format version                           : Version 4 / Version 2
File size                                : 3.38 GiB
Duration                                 : 1h 33mn
Overall bit rate                         : 5 202 Kbps
Encoded date                             : UTC 2018-11-03 16:08:30
Writing application                      : HandBrake 20180926214903-4981e11-master 2018092701
Writing library                          : Lavf58.12.100

Video
ID                                       : 1
Format                                   : HEVC
Format/Info                              : High Efficiency Video Coding
Format profile                           : Main@L4.0
Codec ID                                 : V_MPEGH/ISO/HEVC
Duration                                 : 1h 33mn
Bit rate                                 : 4 331 Kbps
Width                                    : 1 920 pixels
Height                                   : 1 080 pixels
Display aspect ratio                     : 16:9
Frame rate mode                          : Constant
Frame rate                               : 23.976 fps
Color space                              : YUV
Chroma subsampling                       : 4:2:0
Bit depth                                : 8 bits
Bits/(Pixel*Frame)                       : 0.087
Stream size                              : 2.81 GiB (83%)
Writing library                          : x265 2.8:[Windows][GCC 7.1.0][64 bit] 8bit+10bit+12bit
Encoding settings                        : cpuid=1111039 / frame-threads=3 / numa-pools=8 / wpp / no-pmode / no-pme / no-psnr / no-ssim / log-level=2 / input-csp=1 / input-res=1920x1080 / interlace=0 / total-frames=0 / level-idc=0 / high-tier=1 / uhd-bd=0 / ref=3 / no-allow-non-conformance / no-repeat-headers / annexb / no-aud / no-hrd / info / hash=0 / no-temporal-layers / open-gop / min-keyint=24 / keyint=240 / gop-lookahead=0 / bframes=4 / b-adapt=2 / b-pyramid / bframe-bias=0 / rc-lookahead=20 / lookahead-slices=6 / scenecut=40 / radl=0 / no-intra-refresh / ctu=64 / min-cu-size=8 / no-rect / no-amp / max-tu-size=32 / tu-inter-depth=1 / tu-intra-depth=1 / limit-tu=0 / rdoq-level=0 / dynamic-rd=0.00 / no-ssim-rd / signhide / no-tskip / nr-intra=0 / nr-inter=0 / no-constrained-intra / no-strong-intra-smoothing / max-merge=2 / limit-refs=3 / no-limit-modes / me=1 / subme=2 / merange=57 / temporal-mvp / weightp / no-weightb / no-analyze-src-pics / deblock=0:0 / no-sao / no-sao-non-deblock / rd=3 / no-early-skip / rskip / no-fast-intra / no-tskip-fast / no-cu-lossless / no-b-intra / no-splitrd-skip / rdpenalty=0 / psy-rd=2.00 / psy-rdoq=0.00 / no-rd-refine / no-lossless / cbqpoffs=0 / crqpoffs=0 / rc=crf / crf=23.0 / qcomp=0.60 / qpstep=4 / stats-write=0 / stats-read=0 / ipratio=1.40 / pbratio=1.30 / aq-mode=1 / aq-strength=1.00 / cutree / zone-count=0 / no-strict-cbr / qg-size=32 / no-rc-grain / qpmax=69 / qpmin=0 / no-const-vbv / sar=1 / overscan=0 / videoformat=5 / range=0 / colorprim=1 / transfer=1 / colormatrix=1 / chromaloc=0 / display-window=0 / max-cll=0,0 / min-luma=0 / max-luma=255 / log2-max-poc-lsb=8 / vui-timing-info / vui-hrd-info / slices=1 / no-opt-qp-pps / no-opt-ref-list-length-pps / no-multi-pass-opt-rps / scenecut-bias=0.05 / no-opt-cu-delta-qp / no-aq-motion / no-hdr / no-hdr-opt / no-dhdr10-opt / no-idr-recovery-sei / analysis-reuse-level=5 / scale-factor=0 / refine-intra=0 / refine-inter=0 / refine-mv=0 / no-limit-sao / ctu-info=0 / no-lowpass-dct / refine-mv-type=0 / copy-pic=1 / max-ausize-factor=1.0 / no-dynamic-refine / no-single-sei
Default                                  : Yes
Forced                                   : No
DURATION                                 : 01:33:01.185000000

Audio #1
ID                                       : 2
Format                                   : AC-3
Format/Info                              : Audio Coding 3
Mode extension                           : CM (complete main)
Format settings, Endianness              : Big
Codec ID                                 : A_AC3
Duration                                 : 1h 33mn
Bit rate mode                            : Constant
Bit rate                                 : 384 Kbps
Channel(s)                               : 2 channels
Channel positions                        : Front: L R
Sampling rate                            : 48.0 KHz
Bit depth                                : 16 bits
Compression mode                         : Lossy
Delay relative to video                  : -5ms
Stream size                              : 255 MiB (7%)
Title                                    : Stereo
Language                                 : German
Default                                  : Yes
Forced                                   : No
DURATION                                 : 01:33:01.184000000

Audio #2
ID                                       : 3
Format                                   : AC-3
Format/Info                              : Audio Coding 3
Mode extension                           : CM (complete main)
Format settings, Endianness              : Big
Codec ID                                 : A_AC3
Duration                                 : 1h 33mn
Bit rate mode                            : Constant
Bit rate                                 : 384 Kbps
Channel(s)                               : 2 channels
Channel positions                        : Front: L R
Sampling rate                            : 48.0 KHz
Bit depth                                : 16 bits
Compression mode                         : Lossy
Delay relative to video                  : -5ms
Stream size                              : 255 MiB (7%)
Title                                    : Stereo
Language                                 : English
Default                                  : No
Forced                                   : No
DURATION                                 : 01:33:01.184000000



Download:
Share Online Share OnlineShare OnlineShare Online
 

Kommentare