The Dragon Prince - Season 1 | Inventory Systems | AnimeGirl
 


 

Filecrypt zeigt vereinzelt Files als "n/a". Die Downloads sind trotzdem komplett.

DNS SERVER AENDERNum der staatlichen Zensur zu umgehen. Sollten wir von eurem Provider geseprrt werden, nutzt den TOR BROWSER oder ändert euren DNS SERVER.

Filmwünsche können bei uns im Forum abgegeben werden

Wir Speichern Nicht




 
 
 
Top Releases
Blue.My.Mind.2018.German.720...
Blue.My.Mind.2018.German.108...
The.Equalizer.2.2018.German....
The.Equalizer.2.German.DL.AC...
The.Equalizer.2.German.DL.AC...
Ant-Man.And.The.Wasp.2018.MU...
Oceans.8.2018.German.AC3.DL....
Constantine.City.of.Demons.2...
Meg.2018.German.Dubbed.RETAi...
Meg.2018.German.Dubbed.RETAi...

Cinedubs
Juliet.Naked.2018.GERMAN.DL....
Juliet.Naked.2018.GERMAN.DL....
10x10.2018.German.AC3D.DL.10...
Predator.Upgrade.German.DL.A...
Predator.Upgrade.German.DL.A...
10×10.2018.German.AC3D.DL.1...
10×10.2018.German.AC3D.DL.7...
Sicario.2.German.DL.AC3.Dubb...
Sicario.2.German.DL.AC3.Dubb...
Mission.Impossible.Fallout.2...

Neuerscheinungen 2017-18
Cut.Shoot.Kill.2017.COMPLETE...
Docteur.Knock.Ein.Arzt.mit.g...
Terminal.Rache.war.nie.schoe...
Mein.Name.ist.Somebody.2018....
Kingsman.The.Secret.Service....
8.Millionen.Wege.zu.sterben....
Ein.gewisser.Herr.Gran.1933....
Vampire.gegen.Herakles.The.V...
Steig.Nicht.Aus.2018.German....
Der.Falke.und.der.Schneemann...

XXX
Desperate.Black.Wives.I.Love...
Deep.Teen.Throat.18.XXX.720p...
Desperate.Black.Wives.I.Love...
Deep.Teen.Throat.18.XXX.1080...
WhiteGhetto.18.10.30.Gabby.Q...
GrandpasFuckTeens.18.10.30.K...
GirlsOutWest.18.10.29.Ray.XX...
WildOnCam.18.10.29.Bethany.B...
GirlsOutWest.18.10.28.Freya....
IKnowThatGirl.18.10.28.Ariet...
GirlsDoPorn.E483.18.Years.Ol...
GirlsDoPorn.E484.20.Years.Ol...
GirlFap.E36.Danica.James.Dor...
GirlsDoPorn.E487.19.Years.Ol...
WetAndPuffy.18.10.31.Nana.Ga...
BustyArianna.18.10.09.For.An...
ATKGirlfriends.18.10.30.Elen...
GirlFap.E35.Hanna.Lay.Vibrat...
GirlsDoPorn.E486.19.Years.Ol...
HardX.18.10.30.Elena.Koshka....

3D
Skyscraper.3D.2018.MULTi.COM...
Ant-Man.And.The.Wasp.3D.2018...
Ant.Man.and.the.Wasp.3D.2018...
Die.Unglaublichen.2.3D.2018....
Die.Unglaublichen.2.2018.3D....
Die.Unglaublichen.2.2018.3D....
Sharknado.6.The.Last.One.3D....
Deep.Kleine.Helden.der.Tiefs...
Deep.3D.2017.MULTI.COMPLETE....
Detective.Dee.und.die.Legend...
Detective.Dee.und.die.Legend...
Skyscraper.3D.German.DL.AC3....
Ant-Man.and.the.Wasp.2018.3D...
Jurassic.World.Das.gefallene...
Jurassic.World.Das.gefallene...

Old_Stuff
Detective.Dee.und.das.Geheim...
Detective.Dee.Und.Der.Fluch....
Ghost.Rider.Spirit.of.Vengea...
Species.IV.Das.Erwachen.2007...
Species.IV.Das.Erwachen.2007...
Hotel.Transsilvanien.2012.Ge...
The.Dead.2010.German.DL.1080...
The.Dead.2.India.2013.German...
Britney.Spears.Live.The.Femm...
Buffy.The.Vampire.Slayer.199...
IMAX.Ride.Around.The.World.2...
Schimanski.-.Duisburg.Ruhror...
Akte.X.S02.German.DTS.DL.108...
How.I.Met.Your.Mother.S02.Ge...
Akte.X.S01.German.DTS.DL.108...

Filme
Wrecked.S03.GERMAN.DUBBED.72...
Legends.of.Tomorrow.S03.COMP...
Legends.of.Tomorrow.S03.COMP...
The.Walking.Dead.S08.COMPLET...
Cliffhanger.Nur.die.Starken....
Feed.the.Fish.German.DL.2009...
Cliffhanger.Nur.die.Starken....
Stirb.langsam.Jetzt.erst.rec...
The.Last.Ship.S05.COMPLETE.G...
Meuterei.auf.der.Teufelsinse...
Stirb.Langsam.2.1990.German....
Evil.Dead.EXTENDED.BOOTLEG.2...
Evil.Dead.UNCUT.German.DL.10...
The.Fog.Nebel.des.Grauens.Re...
Chico.und.Rita.2010.German.A...
American.Beauty.1999.Open.Ma...
Stoppt.die.Todesfahrt.der.U....
Stoppt.die.Todesfahrt.der.U....
The.Hills.Have.Eyes.1.UNRATE...
Zorro.1975.German.720p.BluRa...
Zorro.1975.German.DL.1080p.B...
8.Millionen.Wege.zu.sterben....
You.Can.Count.on.Me.2000.Ger...
The.Walking.Dead.S09.GERMAN....

 
 
Ab.in.die.Ewigkeit.1981.German.AC3D.DL.1080p.BluRay.x265-FuN

Jahr: 1981
Genre: Horror, Thriller
Sprache: Deutsch AC3 | Englisch AC3
Laufzeit: 1h 50mn
Bitrate: 3 378 Kbps
Format: MKV
Größe: 2.61 GiB
Release:

Beschreibung:

Die beliebte Highschool-Studentin Virgina Wainwright überlebt einen unerklärlichen Unfall, leidet aber fortan unter Gedächtnislücken und traumatischen Blackouts. Als sie versucht, ihr normales Leben wieder aufzunehmen, werden ihre Freunde nacheinander auf brutalste Weise ermordet. Wird Virginia das nächste Opfer - oder ist sie am Ende selbst die Mörderin? Die schreckliche Wahrheit kommt an den Tag, als sie ihren 18. Geburtstag feiert ...




Format                                   : Matroska
Format version                           : Version 4 / Version 2
File size                                : 2.61 GiB
Duration                                 : 1h 50mn
Overall bit rate                         : 3 378 Kbps
Encoded date                             : UTC 2018-11-02 05:18:40
Writing application                      : HandBrake 20180926214903-4981e11-master 2018092701
Writing library                          : Lavf58.12.100

Video
ID                                       : 1
Format                                   : HEVC
Format/Info                              : High Efficiency Video Coding
Format profile                           : Main@L4.0
Codec ID                                 : V_MPEGH/ISO/HEVC
Duration                                 : 1h 50mn
Bit rate                                 : 2 543 Kbps
Width                                    : 1 920 pixels
Height                                   : 1 080 pixels
Display aspect ratio                     : 16:9
Frame rate mode                          : Constant
Frame rate                               : 23.976 fps
Color space                              : YUV
Chroma subsampling                       : 4:2:0
Bit depth                                : 8 bits
Bits/(Pixel*Frame)                       : 0.051
Stream size                              : 1.97 GiB (75%)
Writing library                          : x265 2.8:[Windows][GCC 7.1.0][64 bit] 8bit+10bit+12bit
Encoding settings                        : cpuid=1111039 / frame-threads=3 / numa-pools=8 / wpp / no-pmode / no-pme / no-psnr / no-ssim / log-level=2 / input-csp=1 / input-res=1920x1080 / interlace=0 / total-frames=0 / level-idc=0 / high-tier=1 / uhd-bd=0 / ref=3 / no-allow-non-conformance / no-repeat-headers / annexb / no-aud / no-hrd / info / hash=0 / no-temporal-layers / open-gop / min-keyint=24 / keyint=240 / gop-lookahead=0 / bframes=4 / b-adapt=2 / b-pyramid / bframe-bias=0 / rc-lookahead=20 / lookahead-slices=6 / scenecut=40 / radl=0 / no-intra-refresh / ctu=64 / min-cu-size=8 / no-rect / no-amp / max-tu-size=32 / tu-inter-depth=1 / tu-intra-depth=1 / limit-tu=0 / rdoq-level=0 / dynamic-rd=0.00 / no-ssim-rd / signhide / no-tskip / nr-intra=0 / nr-inter=0 / no-constrained-intra / no-strong-intra-smoothing / max-merge=2 / limit-refs=3 / no-limit-modes / me=1 / subme=2 / merange=57 / temporal-mvp / weightp / no-weightb / no-analyze-src-pics / deblock=0:0 / no-sao / no-sao-non-deblock / rd=3 / no-early-skip / rskip / no-fast-intra / no-tskip-fast / no-cu-lossless / no-b-intra / no-splitrd-skip / rdpenalty=0 / psy-rd=2.00 / psy-rdoq=0.00 / no-rd-refine / no-lossless / cbqpoffs=0 / crqpoffs=0 / rc=crf / crf=23.0 / qcomp=0.60 / qpstep=4 / stats-write=0 / stats-read=0 / ipratio=1.40 / pbratio=1.30 / aq-mode=1 / aq-strength=1.00 / cutree / zone-count=0 / no-strict-cbr / qg-size=32 / no-rc-grain / qpmax=69 / qpmin=0 / no-const-vbv / sar=1 / overscan=0 / videoformat=5 / range=0 / colorprim=1 / transfer=1 / colormatrix=1 / chromaloc=0 / display-window=0 / max-cll=0,0 / min-luma=0 / max-luma=255 / log2-max-poc-lsb=8 / vui-timing-info / vui-hrd-info / slices=1 / no-opt-qp-pps / no-opt-ref-list-length-pps / no-multi-pass-opt-rps / scenecut-bias=0.05 / no-opt-cu-delta-qp / no-aq-motion / no-hdr / no-hdr-opt / no-dhdr10-opt / no-idr-recovery-sei / analysis-reuse-level=5 / scale-factor=0 / refine-intra=0 / refine-inter=0 / refine-mv=0 / no-limit-sao / ctu-info=0 / no-lowpass-dct / refine-mv-type=0 / copy-pic=1 / max-ausize-factor=1.0 / no-dynamic-refine / no-single-sei
Default                                  : Yes
Forced                                   : No
DURATION                                 : 01:50:43.017000000

Audio #1
ID                                       : 2
Format                                   : AC-3
Format/Info                              : Audio Coding 3
Mode extension                           : CM (complete main)
Format settings, Endianness              : Big
Codec ID                                 : A_AC3
Duration                                 : 1h 50mn
Bit rate mode                            : Constant
Bit rate                                 : 384 Kbps
Channel(s)                               : 2 channels
Channel positions                        : Front: L R
Sampling rate                            : 48.0 KHz
Bit depth                                : 16 bits
Compression mode                         : Lossy
Delay relative to video                  : 23ms
Stream size                              : 304 MiB (11%)
Title                                    : Stereo
Language                                 : German
Default                                  : Yes
Forced                                   : No
DURATION                                 : 01:50:43.260000000

Audio #2
ID                                       : 3
Format                                   : AC-3
Format/Info                              : Audio Coding 3
Mode extension                           : CM (complete main)
Format settings, Endianness              : Big
Codec ID                                 : A_AC3
Duration                                 : 1h 50mn
Bit rate mode                            : Constant
Bit rate                                 : 384 Kbps
Channel(s)                               : 6 channels
Channel positions                        : Front: L C R, Side: L R, LFE
Sampling rate                            : 48.0 KHz
Bit depth                                : 16 bits
Compression mode                         : Lossy
Delay relative to video                  : -5ms
Stream size                              : 304 MiB (11%)
Title                                    : Surround
Language                                 : English
Default                                  : No
Forced                                   : No
DURATION                                 : 01:50:43.040000000



Download:
Share Online Share OnlineShare OnlineShare Online
 

Kommentare